Web
Analytics
Stargirl.S02E06.720p.WEB.h264-GOSSIP > 외국티비 > 모던 토렌트 더토렌트

팝업레이어 알림

block_2.png
 [구글검색] 구글에서 더토렌트 검색 - 구글에서 토렌트를 검색하실 때에 검색어 뒤에 더토렌트를 꼭 붙여서 검색하세요.     더토렌트에서 광고중인 웹에 문제가 있다면 메뉴에 나와 있는 운영자 이메일로 연락 주십시오.     사용자님의 다운로드가 완료될 때까지 저희가 함께하겠습니다. 편안하고 즐거운 시간 되십시오.

파일마루

  

  
Stargirl.S02E06.720p.WEB.h264-GOSSIP  직접 다운로드  무료 다운로드  무제한 다운로드  초고속 다운로드
  • 파일 설명:     Screens... (click to enlarge): presents Stargirl.S02E06.720p.WEB.h264-GOSSIP date......: 15/09/2021 size......: 887 MiB runtime...: 42 min 15 s resolution: 1280x576 bitrate...: 2 292 kb/s audio.....: (English) E-AC-3 6ch 640 kb/s subs......: English url.......: https://www.tvmaze.com/shows/37809/stargirl They gossip this is a quality release!Infolink -> https://www.imdb.com/title/tt8722888/Quote:MediainfoVideoID : 1Format : AVCFormat/Info : Advanced Video CodecFormat profile : [email protected]Format settings : CABAC / 4 Ref FramesFormat settings, CABAC : YesFormat settings, Reference frames : 4 framesCodec ID : V_MPEG4/ISO/AVCDuration : 42 min 15 sBit rate mode : ConstantBit rate : 2 292 kb/sNominal bit rate : 6 000 kb/sWidth : 1 280 pixelsHeight : 576 pixelsDisplay aspect ratio : 2.2:1Original display aspect ratio : 2.2:1Frame rate mode : ConstantFrame rate : 23.976 (24000/1001) FPSColor space : YUVChroma subsampling : 4:2:0Bit depth : 8 bitsScan type : ProgressiveBits/(Pixel*Frame) : 0.130Stream size : 693 MiB (78%)Language : EnglishDefault : YesForced : NoColor range : LimitedColor primaries : BT.709Transfer characteristics : BT.709Matrix coefficients : BT.709AudioID : 2Format : E-AC-3Format/Info : Enhanced AC-3Commercial name : Dolby Digital PlusCodec ID : A_EAC3Duration : 42 min 15 sBit rate mode : ConstantBit rate : 640 kb/sChannel(s) : 6 channelsChannel layout : L R C LFE Ls RsSampling rate : 48.0 kHzFrame rate : 31.250 FPS (1536 SPF)Compression mode : LossyStream size : 193 MiB (22%)Language : EnglishService kind : Complete MainDefault : YesForced : NoTextID : 3Format : UTF-8Codec ID : S_TEXT/UTF8Codec ID/Info : UTF-8 Plain TextDuration : 42 min 9 sBit rate : 40 b/sCount of elements : 690Stream size : 12.5 KiB (0%)Title : EnglishLanguage : EnglishDefault : NoForced : No Stargirl.S02E06.720p.WEB.h264-GOSSIP…
  • 인기 연관 검색어 구글 검색:    
  • 관련 자료(가나다순):    Stargirl (2020) S01 (4Kto1080p DCU Webrip x265 10bit EAC3 5 1 -…    Stargirl S02E06 WEBRip x264-ION10
  • 관련 자료(시간순):    Stargirl S01E03 720p WEB x265-MiNX TGx ⭐ - 더토렌트    Stargirl S02E06 Summer School Chapter Six 1080p AMZN WEBrip x26…
  • 같은 시각 자료:    Nine.Perfect.Strangers.S01E07.WEB.x264-TORRENTGALAXY    Stargirl.S02E06.1080p.WEB.h264-GOSSIP
모바일로 고화질 실시간 다시보기 합법으로 받을 수 있는 유일한 방법 토렌트에서 다운로드가 안될 때 토렌트에서 찾는 파일이 없을 때

Stargirl.S02E06.720p.WEB.h264-GOSSIP
댓글 0 조회 4 인증 0 신고 0

Screens... (click to enlarge):





presents

Stargirl.S02E06.720p.WEB.h264-GOSSIP

date......: 15/09/2021
size......: 887 MiB
runtime...: 42 min 15 s
resolution: 1280x576
bitrate...: 2 292 kb/s
audio.....: (English) E-AC-3 6ch 640 kb/s
subs......: English
url.......: https://www.tvmaze.com/shows/37809/stargirl

They gossip this is a quality release!

Infolink -> https://www.imdb.com/title/tt8722888/

Quote:

Mediainfo
Video
ID : 1
Format : AVC
Format/Info : Advanced Video Codec
Format profile : [email protected]
Format settings : CABAC / 4 Ref Frames
Format settings, CABAC : Yes
Format settings, Reference frames : 4 frames
Codec ID : V_MPEG4/ISO/AVC
Duration : 42 min 15 s
Bit rate mode : Constant
Bit rate : 2 292 kb/s
Nominal bit rate : 6 000 kb/s
Width : 1 280 pixels
Height : 576 pixels
Display aspect ratio : 2.2:1
Original display aspect ratio : 2.2:1
Frame rate mode : Constant
Frame rate : 23.976 (24000/1001) FPS
Color space : YUV
Chroma subsampling : 4:2:0
Bit depth : 8 bits
Scan type : Progressive
Bits/(Pixel*Frame) : 0.130
Stream size : 693 MiB (78%)
Language : English
Default : Yes
Forced : No
Color range : Limited
Color primaries : BT.709
Transfer characteristics : BT.709
Matrix coefficients : BT.709

Audio
ID : 2
Format : E-AC-3
Format/Info : Enhanced AC-3
Commercial name : Dolby Digital Plus
Codec ID : A_EAC3
Duration : 42 min 15 s
Bit rate mode : Constant
Bit rate : 640 kb/s
Channel(s) : 6 channels
Channel layout : L R C LFE Ls Rs
Sampling rate : 48.0 kHz
Frame rate : 31.250 FPS (1536 SPF)
Compression mode : Lossy
Stream size : 193 MiB (22%)
Language : English
Service kind : Complete Main
Default : Yes
Forced : No

Text
ID : 3
Format : UTF-8
Codec ID : S_TEXT/UTF8
Codec ID/Info : UTF-8 Plain Text
Duration : 42 min 9 s
Bit rate : 40 b/s
Count of elements : 690
Stream size : 12.5 KiB (0%)
Title : English
Language : English
Default : No
Forced : No

Stargirl.S02E06.720p.WEB.h264-GOSSIP

번역하기: 한국 한국어


<< 이 게시판에서 관련된 자료 목록 >>
0 Comments     0.0 / 0
 [구글검색] 구글에서 더토렌트 검색 - 구글에서 토렌트를 검색하실 때에 검색어 뒤에 더토렌트를 꼭 붙여서 검색하세요.     더토렌트에서 광고중인 웹에 문제가 있다면 메뉴에 나와 있는 운영자 이메일로 연락 주십시오.     사용자님의 다운로드가 완료될 때까지 저희가 함께하겠습니다. 편안하고 즐거운 시간 되십시오.

파일비트

  

  

오늘의 업데이트


현재 인기있는 자료


외국티비 인기글


오늘의 인기글


실시간 검색어


3일 인기 자료


Facebook Twitter GooglePlus KakaoStory NaverBand